Lo Que El Viento Se Llevo HDRip Drama Castellano Ac3 5.1 1939 .Avi LB

Información del archivo en el servidor

Partes: 5

Servidor: LB

Tamaño: 2.85 gb

Sinopsis

Georgia, 1861. En la elegante mansión sureña de Tara, vive Scarlett O’Hara (Vivien Leigh), la joven más bella, caprichosa y egoísta de la región. Ella suspira por el amor de Ashley (Leslie Howard), pero él está prometido con su prima, la dulce y bondadosa Melanie (Olivia de Havilland). En la última fiesta, antes del estallido de la Guerra de Secesión (1861-1865), Scarlett conoce al simpático, cínico y apuesto Rhett Butler (Clark Gable), un vividor arrogante y aventurero, que sólo piensa en sí mismo y que no tiene ninguna intención de participar en la contienda. Lo único que él desea es hacerse rico y conquistar el corazón de la hermosa Scarlett.

Caps

Ficha Tenica

TÍTULO ORIGINAL Gone With the Wind

AÑO 1939

DURACIÓN 238 min.

PAÍS EE.UU

DIRECTOR Victor Fleming, George Cukor, Sam Wood

GUIÓN Sidney Howard, Oliver H.P. Garrett, Ben Hecht, Jo Swerling, John Van Druten (Novela: Margaret Mitchell)

MÚSICA Max Steiner

FOTOGRAFÍA Ernest Haller

REPARTO Vivien Leigh, Clark Gable, Olivia de Havilland, Leslie Howard, Hattie McDaniel, Thomas Mitchell, Barbara O’Neil, Butterfly McQueen, Ona Munson, Ann Rutherford, Evelyn Keyes, Mickey Kuhn

PRODUCTORA Selznick International Pictures / Metro-Goldwyn-Mayer (MGM)

PREMIOS 1939: 8 (+1 honorario) Oscars, incluyendo mejor película y actriz (Leigh). 13 nominaciones

GÉNERO Drama. Romance. Aventuras | Guerra de Secesión. Siglo XIX. Drama romántico. Drama sureño

Datos de ripeo

Código: Lo.q.El_S.lle.39_Sk73_1.avi
Format : AVI
Format/Info : Audio Video Interleave
File size : 1.46 GiB
Duration : 1h 41mn
Overall bit rate : 2 060 Kbps
Writing application : VirtualDubMod 1.5.10.2 (build 2542/release)
Writing library : VirtualDubMod build 2542/release
segm :

Video
ID : 0
Format : MPEG-4 Visual
Format profile : Advanced [email protected]
Format settings, BVOP : 2
Format settings, QPel : No
Format settings, GMC : No warppoints
Format settings, Matrix : Default (H.263)
Codec ID : XVID
Codec ID/Hint : XviD
Duration : 1h 41mn
Bit rate : 1 666 Kbps
Width : 720 pixels
Height : 400 pixels
Display aspect ratio : 16:9
Frame rate : 23.976 fps
Color space : YUV
Chroma subsampling : 4:2:0
Bit depth : 8 bits
Scan type : Progressive
Compression mode : Lossy
Bits/(Pixel*Frame) : 0.241
Stream size : 1.18 GiB (81%)
Writing library : XviD 1.1.2 (UTC 2006-11-01)

Audio
ID : 1
Format : AC-3
Format/Info : Audio Coding 3
Mode extension : CM (complete main)
Codec ID : 2000
Duration : 1h 41mn
Bit rate mode : Constant
Bit rate : 384 Kbps
Channel(s) : 6 channels
Channel positions : Front: L C R, Side: L R, LFE
Sampling rate : 48.0 KHz
Bit depth : 16 bits
Compression mode : Lossy
Delay relative to video : 100ms
Stream size : 279 MiB (19%)
Alignment : Split accross interleaves
Interleave, duration : 42 ms (1.00 video frame)
Interleave, preload duration : 500 ms

Lo.q.El_S.lle.39_Sk73_2.avi
Format : AVI
Format/Info : Audio Video Interleave
File size : 1.39 GiB
Duration : 2h 11mn
Overall bit rate : 1 516 Kbps
Writing application : VirtualDubMod 1.5.10.2 (build 2542/release)
Writing library : VirtualDubMod build 2542/release

Video
ID : 0
Format : MPEG-4 Visual
Format profile : Advanced [email protected]
Format settings, BVOP : 2
Format settings, QPel : No
Format settings, GMC : No warppoints
Format settings, Matrix : Default (H.263)
Codec ID : XVID
Codec ID/Hint : XviD
Duration : 2h 11mn
Bit rate : 1 123 Kbps
Width : 720 pixels
Height : 400 pixels
Display aspect ratio : 16:9
Frame rate : 23.976 fps
Color space : YUV
Chroma subsampling : 4:2:0
Bit depth : 8 bits
Scan type : Progressive
Compression mode : Lossy
Bits/(Pixel*Frame) : 0.163
Stream size : 1.03 GiB (74%)
Writing library : XviD 1.1.2 (UTC 2006-11-01)

Audio
ID : 1
Format : AC-3
Format/Info : Audio Coding 3
Mode extension : CM (complete main)
Codec ID : 2000
Duration : 2h 11mn
Bit rate mode : Constant
Bit rate : 384 Kbps
Channel(s) : 6 channels
Channel positions : Front: L C R, Side: L R, LFE
Sampling rate : 48.0 KHz
Bit depth : 16 bits
Compression mode : Lossy
Delay relative to video : 28ms
Stream size : 362 MiB (25%)
Alignment : Split accross interleaves
Interleave, duration : 42 ms (1.00 video frame)
Interleave, preload duration : 500 ms Descarga

LB

Parte 1
http://tinypaste.com/15040113

Nota: Si encuentras un link caído avísame para volverlo a subir
Descargar Lo Que El Viento Se Llevo [HDRip Drama Castellano Ac3 5.1 1939 .Avi LB] Pelicula Gratis

Entradas Relacionadas

El viento se llevo el vestido de Blake Lively
Un lugar para soar 2011 HDRip Castellano Drama
Reto de valientes Courageous 2011 HdRip Castellano LB-BS
Descargar Todos los das de mi vida 2012 HDRip Castellano
Young Adult 2011 HDRip Castellano
Descargar Tiburn: La presa HDrip Castellano
Descargar Un Golpe de Altura HDrip Castellano
Casi 300 2008 HDRip Castellano MU FS
The Romantics 2010 HDRip Castellano-AC3-5.1 Romance.Comedia
Descargar Lo que el viento se llev 1939 VO 1 LINK SERVIFILE VO

Leave a Reply

*