Terror En Lo Profundo 2011 Shark Night 3D BDRip 1080p AC3 5.1 Es-ESP Es-LATINO DTS En-US Sub

Terror En Lo Profundo[2011]Shark Night 3D[BDRip 1080p]AC3 5.1[Es-ESP][Es-LATINO]DTS[En-US][Sub][Terror]

Ficha Técnica
-
TÍTULO: Shark Night 3D
AÑO: 2011
PAÍS: Estados Unidos
DIRECTOR: David R. Ellis
GUIÓN: Will Hayes, Jesse Studenberg
FOTOGRAFÍA: Gary Capo
GÉNERO: Terror. Thriller | Animales. Tiburones. 3-D
PRODUCTORA: Rogue / Incentive Filmed Entertainment / Next Films / Sierra Pictures
REPARTO: Sara Paxton, Dustin Milligan, Chris Carmack, Joel David Moore, Katharine McPhee

Datos Técnicos

Código: Aporte Exclusivo Por::::…Cadagoto…::::
General
Unique ID : 230085414855357047281143759422785088634 (0xAD18D6CA4153BC6085AB2547695C6C7A)
Complete name : D:NL2QRB-user 8CadagotoHDShark.Night.3D. Exclusivo Por CadagotoShark.Night.3D.BDRip.1080p.TRIAL Aporte Exclusivo Por Cadagoto.mkv
Format : Matroska
Format version : Version 2
File size : 9.21 GiB
Duration : 1h 30mn
Overall bit rate : 14.6 Mbps
Movie name : Aporte Exclusivo Por :::…Cadagoto…:::
Encoded date : UTC 2012-06-12 05:55:22
Writing application : mkvmerge v3.4.0 (‘Rapunzel’) built on May 15 2010 09:38:20
Writing library : libebml v0.8.0 + libmatroska v0.9.0

Video
ID : 1
Format : AVC
Format/Info : Advanced Video Codec
Format profile : High@L4.1
Format settings, CABAC : Yes
Format settings, ReFrames : 4 frames
Codec ID : V_MPEG4/ISO/AVC
Duration : 1h 30mn
Bit rate : 12.3 Mbps
Width : 1 920 pixels
Height : 1 036 pixels
Display aspect ratio : 1.85:1
Frame rate : 23.976 fps
Color space : YUV
Chroma subsampling : 4:2:0
Bit depth : 8 bits
Scan type : Progressive
Bits/(Pixel*Frame) : 0.257
Stream size : 7.55 GiB (82%)
Title : Aporte Exclusivo Por :::…Cadagoto…:::
Writing library : x264 core 116 r2074 2641b9e
Encoding settings : cabac=1 / ref=4 / deblock=1:-3:-3 / analyse=0×3:0×113 / me=umh / subme=10 / psy=1 / psy_rd=1.05:0.10 / mixed_ref=1 / me_range=32 / chroma_me=1 / trellis=2 / 8x8dct=1 / cqm=0 / deadzone=21,11 / fast_pskip=0 / chroma_qp_offset=-2 / threads=8 / sliced_threads=0 / nr=0 / decimate=1 / interlaced=0 / bluray_compat=0 / constrained_intra=0 / bframes=6 / b_pyramid=2 / b_adapt=2 / b_bias=0 / direct=3 / weightb=1 / open_gop=0 / weightp=2 / keyint=250 / keyint_min=23 / scenecut=40 / intra_refresh=0 / rc_lookahead=40 / rc=2pass / mbtree=0 / bitrate=12258 / ratetol=1.0 / qcomp=0.70 / qpmin=0 / qpmax=69 / qpstep=4 / cplxblur=20.0 / qblur=0.5 / vbv_maxrate=40000 / vbv_bufsize=40000 / nal_hrd=none / ip_ratio=1.40 / pb_ratio=1.30 / aq=2:0.80
Language : English
Default : No
Forced : No

Audio #1
ID : 2
Format : AC-3
Format/Info : Audio Coding 3
Mode extension : CM (complete main)
Format settings, Endianness : Big
Codec ID : A_AC3
Duration : 1h 30mn
Bit rate mode : Constant
Bit rate : 384 Kbps
Channel(s) : 6 channels
Channel positions : Front: L C R, Side: L R, LFE
Sampling rate : 48.0 KHz
Bit depth : 16 bits
Compression mode : Lossy
Delay relative to video : 14s 500ms
Stream size : 249 MiB (3%)
Title : Español Latino AC3 5.1 :::…Cadagoto…:::
Default : Yes
Forced : Yes

Audio #2
ID : 3
Format : AC-3
Format/Info : Audio Coding 3
Mode extension : CM (complete main)
Format settings, Endianness : Big
Codec ID : A_AC3
Duration : 1h 30mn
Bit rate mode : Constant
Bit rate : 448 Kbps
Channel(s) : 6 channels
Channel positions : Front: L C R, Side: L R, LFE
Sampling rate : 48.0 KHz
Bit depth : 16 bits
Compression mode : Lossy
Delay relative to video : 28ms
Stream size : 290 MiB (3%)
Title : Castellano AC3 5.1 :::…Cadagoto…:::
Language : Spanish
Default : No
Forced : Yes

Audio #3
ID : 4
Format : DTS
Format/Info : Digital Theater Systems
Codec ID : A_DTS
Duration : 1h 30mn
Bit rate mode : Constant
Bit rate : 1 510 Kbps
Channel(s) : 6 channels
Channel positions : Front: L C R, Side: L R, LFE
Sampling rate : 48.0 KHz
Bit depth : 24 bits
Compression mode : Lossy
Delay relative to video : 11ms
Stream size : 978 MiB (10%)
Title : DTS-HD Ingles :::…Cadagoto…:::
Language : English
Default : No
Forced : No

Text #1
ID : 5
Format : UTF-8
Codec ID : S_TEXT/UTF8
Codec ID/Info : UTF-8 Plain Text
Title : Sub Forzados :::…Cadagoto…:::
Language : Spanish
Default : No
Forced : Yes

Text #2
ID : 6
Format : UTF-8
Codec ID : S_TEXT/UTF8
Codec ID/Info : UTF-8 Plain Text
Title : Sub Completos :::…Cadagoto…:::
Language : Spanish
Default : No
Forced : No
Sinopsis
- Para un grupo de estudiantes universitarios con ganas de aventura y fiesta, un excitante fin de semana de verano se convertirá en una sangrienta pesadilla cuando se ven sorprendidos por peligrosos tiburones bajo las tranquilas aguas del lago de Louisiana donde se divierten.

Links Intercambiables De 500 Mb!
(1° Abrir el link en tu NAVEGADOR, ESPERAR 8 SEGUNDOS Y PULSAR ESTO)

¡Descargar AQUI!
http://4d4c8a0b.miniurls.co

Los Archivos .REV Reemplazan A Cualquiera de Los Demas Rars!

¡Aquellos Archivos Sustituyen Partes Off O Dañadas , Úsalos!

Descargar Terror En Lo Profundo [2011] Shark Night 3D [BDRip 1080p]AC3 5.1[Es-ESP][Es-LATINO]DTS[En-US][Sub] Pelicula Gratis

Entradas Relacionadas

Shark Night Terror en lo profundo 2011 DVDRip Audio Latino 1 Link LB
Shark Night Terror en lo profundo 2011 DVDRip Audio Latino 1 Link LB
Terror En Lo Profundo 2011 Audio Latino BrRip XviD Terror/Triller
De Terror en lo Profundo BRRip 720p Espaol Latino 2011 1 Link Letitbit
Terror En Lo Profundo 2011 3D SBS BDRip 1080p AC3 5.1 Es-ESP Es-LATINO DTS En-US Sub
Terror en lo Profundo 2011 Br-rip Avi Latino
Terror En Lo Profundo 2011 BDRip 720p AC3 5.1 Es-ESP Es-LATINO DTS Eng Sub Terror
Terror en lo Profundo 2011 DVDRip Latino Terror
The Hangover Part II 2011 BDRip Espanol Latin
Dragons: Gift of the Night Fury 2011 720p BdRip Latino-Ingles FS-BS-TB-ET

Leave a Reply

*