Drive Angry 2011 3D SBS BDRip 1080p AC3 5.1 Es-ESP Es-LAT DTS-HD En-US Sub Accin

Drive Angry [2011][3D SBS][BDRip 1080p]AC3 5.1[Es-ESP][Es-LAT]DTS-HD[En-US][Sub][Thriller]

Ficha Técnica
-TÍTULO ORIGINAL: Drive Angry 3D
AÑO: 2011
DURACIÓN: 104 min.
PAÍS: USA
DIRECTOR: Patrick Lussier
GUIÓN: Todd Farmer, Patrick Lussier
MÚSICA: Michael Wandmacher
FOTOGRAFÍA: Brian Pearson
REPARTO: Nicolas Cage, Amber Heard, William Fichtner, Billy Burke, David Morse, Katy Mixon, Christa Campbell, Charlotte Ross, Nick Gomez
PRODUCTORA: Summit Entertainment / Millennium Films / Nu Image Films / Nu Image
GÉNERO: Thriller | 3-D

Datos Técnicos

Código: Aporte Exclusivo Por::::…Cadagoto…::::
General
Unique ID : 236446830323763695396988564298427892376 (0xB1E200C9B188A70AAAF6A8D34B7D8298)
Complete name : D:NL2QRB-user 8CadagotoHDDrive Angry 3D SBS TRIAL Exclusivo Por CadagotoDrive Angry 3D SBS TRIAL Exclusivo Por Cadagoto.mkv
Format : Matroska
Format version : Version 2
File size : 11.2 GiB
Duration : 1h 44mn
Overall bit rate mode : Variable
Overall bit rate : 15.4 Mbps
Movie name : Aporte Exclusivo Por :::…Cadagoto…:::
Encoded date : UTC 2012-06-13 06:52:38
Writing application : mkvmerge v3.4.0 (‘Rapunzel’) built on May 15 2010 09:38:20
Writing library : libebml v0.8.0 + libmatroska v0.9.0

Video
ID : 1
Format : AVC
Format/Info : Advanced Video Codec
Format profile : High@L4.1
Format settings, CABAC : Yes
Format settings, ReFrames : 4 frames
Codec ID : V_MPEG4/ISO/AVC
Duration : 1h 44mn
Bit rate : 11.6 Mbps
Width : 1 920 pixels
Height : 1 080 pixels
Display aspect ratio : 16:9
Frame rate : 23.976 fps
Color space : YUV
Chroma subsampling : 4:2:0
Bit depth : 8 bits
Scan type : Progressive
Bits/(Pixel*Frame) : 0.233
Stream size : 8.45 GiB (75%)
Title : Aporte Exclusivo Por :::…Cadagoto…:::
Writing library : x264 core 114 r1913 5fd3dce
Encoding settings : cabac=1 / ref=4 / deblock=1:-1:-1 / analyse=0×3:0×113 / me=umh / subme=7 / psy=1 / psy_rd=1.00:0.15 / mixed_ref=1 / me_range=16 / chroma_me=1 / trellis=1 / 8x8dct=1 / cqm=0 / deadzone=21,11 / fast_pskip=1 / chroma_qp_offset=-3 / threads=18 / sliced_threads=0 / nr=0 / decimate=1 / interlaced=0 / constrained_intra=0 / bframes=3 / b_pyramid=2 / b_adapt=1 / b_bias=0 / direct=3 / weightb=1 / open_gop=0 / weightp=2 / keyint=250 / keyint_min=23 / scenecut=40 / intra_refresh=0 / rc_lookahead=40 / rc=crf / mbtree=1 / crf=18.0 / qcomp=0.60 / qpmin=10 / qpmax=69 / qpstep=4 / ip_ratio=1.40 / aq=1:1.00
Language : Spanish
Default : No
Forced : No

Audio #1
ID : 2
Format : AC-3
Format/Info : Audio Coding 3
Mode extension : CM (complete main)
Format settings, Endianness : Big
Codec ID : A_AC3
Duration : 1h 44mn
Bit rate mode : Constant
Bit rate : 640 Kbps
Channel(s) : 6 channels
Channel positions : Front: L C R, Side: L R, LFE
Sampling rate : 48.0 KHz
Bit depth : 16 bits
Compression mode : Lossy
Stream size : 478 MiB (4%)
Title : Español Latino AC3 5.1 :::…Cadagoto…:::
Language : lad
Default : Yes
Forced : Yes

Audio #2
ID : 3
Format : AC-3
Format/Info : Audio Coding 3
Mode extension : CM (complete main)
Format settings, Endianness : Big
Codec ID : A_AC3
Duration : 1h 44mn
Bit rate mode : Constant
Bit rate : 640 Kbps
Channel(s) : 6 channels
Channel positions : Front: L C R, Side: L R, LFE
Sampling rate : 48.0 KHz
Bit depth : 16 bits
Compression mode : Lossy
Stream size : 478 MiB (4%)
Title : Castellano AC3 5.1 :::…Cadagoto…:::
Language : Spanish
Default : No
Forced : No

Audio #3
ID : 4
Format : DTS
Format/Info : Digital Theater Systems
Format profile : MA / Core
Codec ID : A_DTS
Duration : 1h 44mn
Bit rate mode : Variable
Bit rate : 1 561 Kbps / 1 510 Kbps
Channel(s) : 6 channels
Channel positions : Front: L C R, Side: L R, LFE
Sampling rate : 48.0 KHz
Bit depth : 24 bits
Compression mode : Lossless / Lossy
Title : Ingles DTS-HD :::…Cadagoto…:::
Language : English
Default : No
Forced : No

Audio #4
ID : 7
Format : AC-3
Format/Info : Audio Coding 3
Mode extension : CM (complete main)
Format settings, Endianness : Big
Codec ID : A_AC3
Duration : 1h 44mn
Bit rate mode : Constant
Bit rate : 640 Kbps
Channel(s) : 6 channels
Channel positions : Front: L C R, Side: L R, LFE
Sampling rate : 48.0 KHz
Bit depth : 16 bits
Compression mode : Lossy
Stream size : 478 MiB (4%)
Default : No
Forced : No

Text #1
ID : 5
Format : VobSub
Muxing mode : zlib
Codec ID : S_VOBSUB
Codec ID/Info : The same subtitle format used on DVDs
Title : Sub 3D Esp :::…Cadagoto…:::
Language : Spanish
Default : No
Forced : No

Text #2
ID : 6
Format : UTF-8
Codec ID : S_TEXT/UTF8
Codec ID/Info : UTF-8 Plain Text
Title : Sub Esp :::…Cadagoto…:::
Language : Spanish
Default : No
Forced : No

Aporte Exclusivo Por::::…Cadagoto…::::
Sinopsis
- Después del asesinato de su hija y del secuestro de su nieto, Milton (Nicolas Cage), cegado por la ira, se convierte en un hombre vengativo que persigue implacablemente a los culpables. En su desesperado afán de venganza lo acompaña una sexy camarera (Amber Heard), al tiempo que es perseguido por la mano derecha del mismísimo diablo (William Fichtner).

Links Intercambiables De 500 Mb!
(1° Abrir el link en tu NAVEGADOR, ESPERAR 8 SEGUNDOS Y PULSAR ESTO)

¡Descargar AQUI!
http://22d0b7f1.miniurls.co

Los Archivos .REV Reemplazan A Cualquiera de Los Demas Rars!

¡Aquellos Archivos Sustituyen Partes Off O Dañadas , Úsalos!

Descargar Drive Angry[2011][3D SBS][BDRip 1080p]AC3 5.1[Es-ESP][Es-LAT]DTS-HD[En-US][Sub]Acción Pelicula Gratis

Entradas Relacionadas

Peliculas en HD formato mkv 720p y 1080p
Drive Angry 2011 Estreno Espectacular Cam
The Warrior#8217;s Way 2010 BdRip 1080p Lat-Ing Subs Varios Servidores
Portable Angry Birds Rio
AngryBirds Rio Full Cracked Ingles FLS Cerrado
Seven Se7en Ed. remasterizada 1995 BDrip m-1080p x264 Dual Ac3 5.1 Esp-Eng Sub UL/JF/DF
Angry Birds Rio PC Nuevo
Angry Birds Rio v110 Pc Game Full
Furia ciega Drive Angry 3D 2011 Castellano DVDR
Angry Birds RIO iPhone, Ipad e iPod Touch MF

Leave a Reply

*